» » The Miles Davis Quintet - Live In Europe

The Miles Davis Quintet - Live In Europe album flac


Size MP3 album: 1363 mb. | Size FLAC album: 1656 mb.

Miles Davis Quintet – Winter In Europe 1967 Gambit Records – 69255 CD, Unofficial Release 2006 Live At Konserthuset, Stockholm, Sweden, October 31, 1967 0. .

Слушайте Miles Davis Quintet: Live In Europe 1967: The Bootleg Series, Vol. 1 от Miles Davis на Deezer.

Live in Europe 1967: The Bootleg Series Vol. 1 is a 3 CD + 1 DVD live album of Miles Davis and his "second great quintet" (saxophonist Wayne Shorter, pianist Herbie Hancock, bassist Ron Carter, and drummer Tony Williams). The CDs contain recordings of three separate concerts in Europe (Antwerp, Copenhagen and Paris), and the DVD has two additional concerts from Karlsruhe and Stockholm.

Featuring Miles Davis's 'The Second Great Quintet' with Wayne Shorter, Herbie Hancock, Ron Carter and Tony Williams,Live In Europe 1967, Bootleg Vol. 1 is the best historical album of 2012, according to the Downbeat Critics Poll 2012. 180 gram audiophile vinyl. Including 16-page booklet with liner notes by jazz-historian Ashley Kahn and superior packaging. More MILES DAVIS QUINTET. Live In Europe 1967, Bootleg vol 1 is the best historical album of 2012, according to the Downbeat Critics Poll 2012.

Written-By – Miles Davis. Recorded 11/2/67 at Tivolis Koncertsal, Copenhagen, Denmark. The DVD performances were originally issued in 2009 as part of Miles Davis - The Complete Columbia Album Collection (88697524922). All three CDs are previously unreleased. Mastered at Battery Studios, New York City.

The explosive transformation of Miles Davis’ second great Quintet with Wayne Shorter (tenor sax), Herbie Hancock (piano), Ron Carter (bass), and Tony Williams (drums) is laid bare on this release. Culled from original state-owned television and radio sources in Belgium, Denmark, France, Germany, and Sweden, the program spans five northern European festival performances over the course of nine days in October-November 1967. The audio shows consist entirely of previously unreleased or previously only bootlegged material. Focuses on the final chapter in the landmark collaboration between Davis and saxophonist John Coltrane: their last live performances together. Recorded in support of Kind of Blue, the best-selling jazz album of all time. 4CD set includes concerts recorded in Paris, Copenhagen and Stockholm from original master tapes.

Miles Davis Quintet: Freedom Jazz Dance: The Bootleg Series, Vol. 5 by Miles Davis Audio CD £1. 9. These discs have been superbly mastered from original radio and TV sources and cover a short period of time during a major 1967 concert tour of Europe. Don't let the significant number of repeats of tracks fool you because this ensemble were all about improvising. Tracks get stretched and taken into very different directions as the group play almost telepathically together.

This second entry, Live in Europe 1969: Bootleg Series, Vol. 2, showcases almost an entirely different band – only saxophonist Wayne Shorter remains. Bassist Dave Holland, drummer Jack DeJohnette, and pianist Chick Corea made up Davis' road band, and other individuals participated in sessions for Filles de Kilimanjaro and In a Silent Way. These fire-breathing performances offer a band at fever pitch hearing and playing what they knew even then was a new chapter in jazz history. The first volume Legacy’s Miles Davis bootleg series offered audio and video evidence of his second great quintet playing the Newport Jazz Festival in Europe in 1967. Acclaim from critics and fans was universal. This second entry, Live in Europe 1969: Bootleg Series, Vol.

Any serious fan of Miles Davis regards the trumpeter's career as would a geologist standing on the lip of the Grand Canyon. And here's another stratum of musical history recently unearthed: three CDs and one stunning DVD of the proto-electric Lost Quintet in concert, test-driving material that would later emerge on the ground-breaking 'Bitches Brew' album the following year  . The album 'In a Silent Way' would be released only five days after this gig, but the same, soothing melodies recorded in the studio five months earlier were already turning nervous and agitated on stage.

PERFORMER "Miles Davis Quintet" INDEX 01 00:00:00 FILE "05 - Footprints. wav" WAVE TRACK 05 AUDIO TITLE "Footprints" PERFORMER "Miles Davis Quintet" INDEX 01 00:00:00 FILE "06 - 'Round Midnight. wav" WAVE TRACK 06 AUDIO TITLE "'Round Midnight" PERFORMER "Miles Davis Quintet" INDEX 01 00:00:00 FILE "07 - It's about That Time. wav" WAVE TRACK 07 AUDIO TITLE. It's about That Time" PERFORMER "Miles Davis Quintet" INDEX 01 00:00:00 FILE "08 - Sanctuary

Tracklist

A1 Introduction 0:15
A2 Autumn Leaves 11:40
A3 Milestones 9:15
A4 Joshua 9:30
B1 All Of You 13:58
B2 Walkin'

Companies, etc.

  • Pressed By – Embassy – EMB 31103(L)
  • Printed By – Interpak

Credits

  • Bass – Ron Carter
  • Drums – Anthony Williams
  • Piano – Herbie Hancock
  • Saxophone – George Coleman
  • Trumpet – Miles Davis

Other versions

Category Artist Title (Format) Label Category Country Year
CS 8983 Miles Davis Miles Davis In Europe ‎(LP, Album, Ter) Columbia CS 8983 US 1964
88697381112 Miles Davis Miles Davis In Europe ‎(CD, Album, RE, RM) Sony BMG Music Entertainment 88697381112 Russia 2005
CBS 62390 Miles Davis Live In Europe ‎(LP) CBS CBS 62390 France 1981
CQ 645 Miles Davis Miles Davis In Europe Recorded Live At The Antibes Jazz Festival ‎(Reel, 4tr Stereo, 7" Reel, Album) Columbia CQ 645 US 1964
CBS 462960 2 Miles Davis Miles In Antibes ‎(CD, Album, RE) CBS CBS 462960 2 Netherlands 1989



Comments: (1)
Malodora
Pressed in South Africa. Country field provides for "Africa".
The Miles Davis Quintet - Live In Europe album flac
Modal
Performer: The Miles Davis Quintet
Title: Live In Europe
Category: Jazz
Country: US
Released: 1976
Rating: 4.6/5
Votes: 176
Other Formats: MPC WAV MMF AHX AU AA ADX